Totem & VLC, γιατί δε παίζουν τα βίντεο καλής ανάλυσης ;  Το θέμα επιλύθηκε

...βίντεο, ήχος, players, codecs, κλπ (όχι προβλήματα καρτών εδώ)

Συντονιστές: adem1, konnn

Κανόνες Δ. Συζήτησης
Για εγκατάσταση codec, java, flash και εφαρμογών πολυμέσων τρέξτε στο τερματικό
Για ubuntu
sudo apt-get -y install ubuntu-restricted-extras
Για kubuntu
sudo apt-get -y install kubuntu-restricted-extras

Totem & VLC, γιατί δε παίζουν τα βίντεο καλής ανάλυσης ;

Δημοσίευσηαπό Tassos10 » 16 Νοέμ 2016, 22:51

Έχω κάποια βίντεο πολύ καλής ανάλυσης και ενώ τα μισά σχεδόν παίζουν κανονικά με τον Totem ή τον VLC, μερικά όμως εξ αυτών ( αρκετά ), είτε δε παίζουν καθόλου, είτε ναι μεν αρχίζουν να παίζουν, αλλά αν πατήσω να πάει κάπου στην μέση κολλάει το πρόγραμμα αναπαραγωγής βίντεο ( οποιοδήποτε από τα παραπάνω ) ή μπορεί με χίλια ζόρια να καταφέρει να δείξει από εκείνο το σημείο και έπειτα.

Τι συμβαίνει; Είναι θέμα κωδικοποίησης ; Μήπως να κατεβάσω κάποιους codecs ; Καμία ιδέα - λύση ή συμβουλή ;

Εγώ δυστυχώς από θέματα κωδικοποίησης βίντεο και τα λοιπά, δε είμαι γνώστης του αντικειμένου σε βάθος.
Παρακάτω σας παραθέτω και πληροφορίες για τα βίντεο αυτά.

Ένα από τα βίντεο που παίζει μια χαρά :
Κώδικας: Επιλογή όλων
mediainfo --fullscan video_pou_pezi.1080p.bluray.x264.mkv
General
Count                                    : 278
Count of stream of this kind             : 1
Kind of stream                           : General
Kind of stream                           : General
Stream identifier                        : 0
Unique ID                                : 172700478796868825623525306648039328398
Unique ID                                : 172700478796868825623525306648039328398 (0x81ECE70092A31F838F6D820E8C850A8E)
Count of video streams                   : 1
Count of audio streams                   : 1
Count of menu streams                    : 1
Video_Format_List                        : AVC
Video_Format_WithHint_List               : AVC
Codecs Video                             : AVC
Video_Language_List                      : English
Audio_Format_List                        : AC-3
Audio_Format_WithHint_List               : AC-3
Audio codecs                             : AC3
Audio_Language_List                      : English
Complete name                            : video_pou_pezi.1080p.bluray.x264.mkv
File name                                : video_pou_pezi.1080p.bluray.x264
File extension                           : mkv
Format                                   : Matroska
Format                                   : Matroska
Format/Url                               : http://packs.matroska.org/
Format/Extensions usually used           : mkv mk3d mka mks
Commercial name                          : Matroska
Format version                           : Version 4 / Version 2
Codec                                    : Matroska
Codec                                    : Matroska
Codec/Url                                : http://packs.matroska.org/
Codec/Extensions usually used            : mkv mk3d mka mks
File size                                : 3515814049
File size                                : 3.27 GiB
File size                                : 3 GiB
File size                                : 3.3 GiB
File size                                : 3.27 GiB
File size                                : 3.274 GiB
Duration                                 : 2738080
Duration                                 : 45mn 38s
Duration                                 : 45mn 38s 80ms
Duration                                 : 45mn 38s
Duration                                 : 00:45:38.080
Overall bit rate                         : 10272348
Overall bit rate                         : 10.3 Mbps
Stream size                              : 69975524
Stream size                              : 66.7 MiB (2%)
Stream size                              : 67 MiB
Stream size                              : 67 MiB
Stream size                              : 66.7 MiB
Stream size                              : 66.73 MiB
Stream size                              : 66.7 MiB (2%)
Proportion of this stream                : 0.01990
Encoded date                             : UTC 2015-05-31 03:55:33
File last modification date              : UTC 2016-11-15 14:43:40
File last modification date (local)      : 2016-11-15 16:43:40
Writing application                      : mkvmerge v6.2.0 ('Promised Land') built on Apr 28 2013 12:22:01
Writing library                          : libebml v1.3.0 + libmatroska v1.4.0
Writing library                          : libebml v1.3.0 + libmatroska v1.4.0

Video
Count                                    : 205
Count of stream of this kind             : 1
Kind of stream                           : Video
Kind of stream                           : Video
Stream identifier                        : 0
ID                                       : 1
ID                                       : 1
Unique ID                                : 1
Format                                   : AVC
Format/Info                              : Advanced Video Codec
Format/Url                               : http://developers.videolan.org/x264.html
Commercial name                          : AVC
Format profile                           : High@L4.1
Format settings                          : CABAC / 4 Ref Frames
Format settings, CABAC                   : Yes
Format settings, CABAC                   : Yes
Format settings, ReFrames                : 4
Format settings, ReFrames                : 4 frames
Internet media type                      : video/H264
Codec ID                                 : V_MPEG4/ISO/AVC
Codec ID/Url                             : http://ffdshow-tryout.sourceforge.net/
Codec                                    : V_MPEG4/ISO/AVC
Codec                                    : AVC
Codec/Family                             : AVC
Codec/Info                               : Advanced Video Codec
Codec/Url                                : http://ffdshow-tryout.sourceforge.net/
Codec profile                            : High@L4.1
Codec settings                           : CABAC / 4 Ref Frames
Codec settings, CABAC                    : Yes
Codec_Settings_RefFrames                 : 4
Duration                                 : 2738071
Duration                                 : 45mn 38s
Duration                                 : 45mn 38s 71ms
Duration                                 : 45mn 38s
Duration                                 : 00:45:38.071
Bit rate                                 : 9427928
Bit rate                                 : 9 428 Kbps
Nominal bit rate                         : 10285000
Nominal bit rate                         : 10.3 Mbps
Width                                    : 1920
Width                                    : 1 920 pixels
Height                                   : 1080
Height                                   : 1 080 pixels
Pixel aspect ratio                       : 1.000
Display aspect ratio                     : 1.778
Display aspect ratio                     : 16:9
Frame rate                               : 23.976
Frame rate                               : 23.976 fps
Frame count                              : 65648
Resolution                               : 8
Resolution                               : 8 bits
Colorimetry                              : 4:2:0
Color space                              : YUV
Chroma subsampling                       : 4:2:0
Bit depth                                : 8
Bit depth                                : 8 bits
Scan type                                : Progressive
Scan type                                : Progressive
Interlacement                            : PPF
Interlacement                            : Progressive
Bits/(Pixel*Frame)                       : 0.190
Delay                                    : 0
Delay                                    : 00:00:00.000
Delay, origin                            : Container
Delay, origin                            : Container
Stream size                              : 3226792125
Stream size                              : 3.01 GiB (92%)
Stream size                              : 3 GiB
Stream size                              : 3.0 GiB
Stream size                              : 3.01 GiB
Stream size                              : 3.005 GiB
Stream size                              : 3.01 GiB (92%)
Proportion of this stream                : 0.91779
Writing library                          : x264 - core 144 r2525 40bb568
Writing library                          : x264 core 144 r2525 40bb568
Writing library/Name                     : x264
Writing library/Version                  : core 144 r2525 40bb568
Encoding settings                        : cabac=1 / ref=4 / deblock=1:0:0 / analyse=0x3:0x133 / me=umh / subme=7 / psy=1 / psy_rd=1.00:0.00 / mixed_ref=1 / me_range=16 / chroma_me=1 / trellis=1 / 8x8dct=1 / cqm=0 / deadzone=21,11 / fast_pskip=0 / chroma_qp_offset=-2 / threads=60 / lookahead_threads=8 / sliced_threads=0 / nr=0 / decimate=1 / interlaced=0 / bluray_compat=0 / constrained_intra=0 / bframes=3 / b_pyramid=2 / b_adapt=1 / b_bias=0 / direct=1 / weightb=1 / open_gop=0 / weightp=2 / keyint=250 / keyint_min=23 / scenecut=40 / intra_refresh=0 / rc_lookahead=40 / rc=2pass / mbtree=1 / bitrate=10285 / ratetol=1.0 / qcomp=0.60 / qpmin=0 / qpmax=69 / qpstep=4 / cplxblur=20.0 / qblur=0.5 / ip_ratio=1.40 / aq=1:1.00
Language                                 : en
Language                                 : English
Language                                 : English
Language                                 : en
Language                                 : eng
Language                                 : en
Default                                  : Yes
Default                                  : Yes
Forced                                   : No
Forced                                   : No

Audio
Count                                    : 201
Count of stream of this kind             : 1
Kind of stream                           : Audio
Kind of stream                           : Audio
Stream identifier                        : 0
ID                                       : 2
ID                                       : 2
Unique ID                                : 5826889270272028094
Format                                   : AC-3
Format/Info                              : Audio Coding 3
Commercial name                          : AC-3
Mode extension                           : CM (complete main)
Codec ID                                 : A_AC3
Codec                                    : AC3
Codec                                    : AC3
Codec/Family                             : AC3
Codec/Info                               : Dolby AC3
Duration                                 : 2738080
Duration                                 : 45mn 38s
Duration                                 : 45mn 38s 80ms
Duration                                 : 45mn 38s
Duration                                 : 00:45:38.080
Bit rate mode                            : CBR
Bit rate mode                            : Constant
Bit rate                                 : 640000
Bit rate                                 : 640 Kbps
Channel(s)                               : 6
Channel(s)                               : 6 channels
Channel positions                        : Front: L C R, Side: L R, LFE
Channel positions                        : 3/2/0.1
Sampling rate                            : 48000
Sampling rate                            : 48.0 KHz
Samples count                            : 131427840
Resolution                               : 16
Resolution                               : 16 bits
Bit depth                                : 16
Bit depth                                : 16 bits
Compression mode                         : Lossy
Compression mode                         : Lossy
Delay                                    : 0
Delay                                    : 00:00:00.000
Delay, origin                            : Container
Delay, origin                            : Container
Delay relative to video                  : 0
Video0 delay                             : 0
Stream size                              : 219046400
Stream size                              : 209 MiB (6%)
Stream size                              : 209 MiB
Stream size                              : 209 MiB
Stream size                              : 209 MiB
Stream size                              : 208.9 MiB
Stream size                              : 209 MiB (6%)
Proportion of this stream                : 0.06230
Language                                 : en
Language                                 : English
Language                                 : English
Language                                 : en
Language                                 : eng
Language                                 : en
Default                                  : Yes
Default                                  : Yes
Forced                                   : No
Forced                                   : No
dialnorm                                 : -31
dialnorm/String                          : -31 dB
compr                                    : 0.53
compr/String                             : 0.53 dB
dynrng                                   : 0.27
dynrng/String                            : 0.27 dB
bsid                                     : 6
dialnorm_Average                         : -31
dialnorm_Average/String                  : -31 dB
dialnorm_Minimum                         : -31
dialnorm_Minimum/String                  : -31 dB
dialnorm_Maximum                         : -31
dialnorm_Maximum/String                  : -31 dB
dialnorm_Count                           : 2
compr_Average                            : 0.53
compr_Average/String                     : 0.53 dB
compr_Minimum                            : 0.53
compr_Minimum/String                     : 0.53 dB
compr_Maximum                            : 0.53
compr_Maximum/String                     : 0.53 dB
compr_Count                              : 2
dynrng_Average                           : 0.27
dynrng_Average/String                    : 0.27 dB
dynrng_Minimum                           : 0.27
dynrng_Minimum/String                    : 0.27 dB
dynrng_Maximum                           : 0.27
dynrng_Maximum/String                    : 0.27 dB
dynrng_Count                             : 2

Menu
Count                                    : 80
Count of stream of this kind             : 1
Kind of stream                           : Menu
Kind of stream                           : Menu
Stream identifier                        : 0
Chapters_Pos_Begin                       : 72
Chapters_Pos_End                         : 80
00:00:00.000                             : en:00:00:00.000
00:03:03.809                             : en:00:03:03.809
00:09:51.174                             : en:00:09:51.174
00:15:28.052                             : en:00:15:28.052
00:24:52.991                             : en:00:24:52.991
00:29:29.393                             : en:00:29:29.393
00:38:06.451                             : en:00:38:06.451
00:42:09.318                             : en:00:42:09.318


Ένα από τα βίντεο που ναι μεν αρχίζει ( λίγο δειλά - θέλει τον χρόνο του αλλά αρχίζει ), αλλά αν το μεταφέρω απότομα σε άλλο σημείο ( δεν πάει με την κανονική ροή, αλλά π.χ. το πάω αμέσως στο 30ο λεπτό ), τότε είτε μπορεί να πάρει μπρος και να συνεχίσει, είτε να κολλήσει - σταματάει το πρόγραμμα αναπαραγωγής βίντεο και να μου πετάει αυτό το σφάλμα :
Εικόνα

Κώδικας: Επιλογή όλων
mediainfo --fullscan video_to_opio_exi_provlima_stin_sinexia.mkv
General
Count                                    : 278
Count of stream of this kind             : 1
Kind of stream                           : General
Kind of stream                           : General
Stream identifier                        : 0
Unique ID                                : 191083139338340111940954652363358148834
Unique ID                                : 191083139338340111940954652363358148834 (0x8FC1462455ABB68EB25BAB1D488318E2)
Count of video streams                   : 1
Count of audio streams                   : 1
Count of menu streams                    : 1
Video_Format_List                        : AVC
Video_Format_WithHint_List               : AVC
Codecs Video                             : AVC
Video_Language_List                      : English
Audio_Format_List                        : AC-3
Audio_Format_WithHint_List               : AC-3
Audio codecs                             : AC3
Audio_Language_List                      : English
Complete name                            : video_to_opio_exi_provlima_stin_sinexia.1080p.bluray.x264.mkv
File name                                : video_to_opio_exi_provlima_stin_sinexia.1080p.bluray.x264
File extension                           : mkv
Format                                   : Matroska
Format                                   : Matroska
Format/Url                               : http://packs.matroska.org/
Format/Extensions usually used           : mkv mk3d mka mks
Commercial name                          : Matroska
Format version                           : Version 4 / Version 2
Codec                                    : Matroska
Codec                                    : Matroska
Codec/Url                                : http://packs.matroska.org/
Codec/Extensions usually used            : mkv mk3d mka mks
File size                                : 3518811591
File size                                : 3.28 GiB
File size                                : 3 GiB
File size                                : 3.3 GiB
File size                                : 3.28 GiB
File size                                : 3.277 GiB
Duration                                 : 2525280
Duration                                 : 42mn 5s
Duration                                 : 42mn 5s 280ms
Duration                                 : 42mn 5s
Duration                                 : 00:42:05.280
Overall bit rate                         : 11147473
Overall bit rate                         : 11.1 Mbps
Stream size                              : 70031038
Stream size                              : 66.8 MiB (2%)
Stream size                              : 67 MiB
Stream size                              : 67 MiB
Stream size                              : 66.8 MiB
Stream size                              : 66.79 MiB
Stream size                              : 66.8 MiB (2%)
Proportion of this stream                : 0.01990
Encoded date                             : UTC 2016-05-04 02:02:08
File last modification date              : UTC 2016-11-15 17:29:28
File last modification date (local)      : 2016-11-15 19:29:28
Writing application                      : mkvmerge v8.3.0 ('Over the Horizon') 64bit
Writing library                          : libebml v1.3.1 + libmatroska v1.4.2
Writing library                          : libebml v1.3.1 + libmatroska v1.4.2

Video
Count                                    : 205
Count of stream of this kind             : 1
Kind of stream                           : Video
Kind of stream                           : Video
Stream identifier                        : 0
ID                                       : 1
ID                                       : 1
Unique ID                                : 1
Format                                   : AVC
Format/Info                              : Advanced Video Codec
Format/Url                               : http://developers.videolan.org/x264.html
Commercial name                          : AVC
Format profile                           : High@L4.1
Format settings                          : CABAC / 4 Ref Frames
Format settings, CABAC                   : Yes
Format settings, CABAC                   : Yes
Format settings, ReFrames                : 4
Format settings, ReFrames                : 4 frames
Internet media type                      : video/H264
Codec ID                                 : V_MPEG4/ISO/AVC
Codec ID/Url                             : http://ffdshow-tryout.sourceforge.net/
Codec                                    : V_MPEG4/ISO/AVC
Codec                                    : AVC
Codec/Family                             : AVC
Codec/Info                               : Advanced Video Codec
Codec/Url                                : http://ffdshow-tryout.sourceforge.net/
Codec profile                            : High@L4.1
Codec settings                           : CABAC / 4 Ref Frames
Codec settings, CABAC                    : Yes
Codec_Settings_RefFrames                 : 4
Duration                                 : 2525275
Duration                                 : 42mn 5s
Duration                                 : 42mn 5s 275ms
Duration                                 : 42mn 5s
Duration                                 : 00:42:05.275
Bit rate                                 : 10509000
Bit rate                                 : 10.5 Mbps
Width                                    : 1920
Width                                    : 1 920 pixels
Height                                   : 1080
Height                                   : 1 080 pixels
Pixel aspect ratio                       : 1.000
Display aspect ratio                     : 1.778
Display aspect ratio                     : 16:9
Frame rate                               : 23.976
Frame rate                               : 23.976 fps
Frame count                              : 60546
Resolution                               : 8
Resolution                               : 8 bits
Colorimetry                              : 4:2:0
Color space                              : YUV
Chroma subsampling                       : 4:2:0
Bit depth                                : 8
Bit depth                                : 8 bits
Scan type                                : Progressive
Scan type                                : Progressive
Interlacement                            : PPF
Interlacement                            : Progressive
Bits/(Pixel*Frame)                       : 0.211
Delay                                    : 0
Delay                                    : 00:00:00.000
Delay, origin                            : Container
Delay, origin                            : Container
Stream size                              : 3246758153
Stream size                              : 3.02 GiB (92%)
Stream size                              : 3 GiB
Stream size                              : 3.0 GiB
Stream size                              : 3.02 GiB
Stream size                              : 3.024 GiB
Stream size                              : 3.02 GiB (92%)
Proportion of this stream                : 0.92269
Writing library                          : x264 - core 148 r2692 64f4e24
Writing library                          : x264 core 148 r2692 64f4e24
Writing library/Name                     : x264
Writing library/Version                  : core 148 r2692 64f4e24
Encoding settings                        : cabac=1 / ref=4 / deblock=1:0:0 / analyse=0x3:0x133 / me=umh / subme=7 / psy=1 / psy_rd=1.00:0.00 / mixed_ref=1 / me_range=16 / chroma_me=1 / trellis=1 / 8x8dct=1 / cqm=0 / deadzone=21,11 / fast_pskip=0 / chroma_qp_offset=-2 / threads=18 / lookahead_threads=3 / sliced_threads=0 / nr=0 / decimate=1 / interlaced=0 / bluray_compat=0 / constrained_intra=0 / bframes=3 / b_pyramid=2 / b_adapt=1 / b_bias=0 / direct=1 / weightb=1 / open_gop=0 / weightp=2 / keyint=250 / keyint_min=23 / scenecut=40 / intra_refresh=0 / rc_lookahead=40 / rc=2pass / mbtree=1 / bitrate=10509 / ratetol=1.0 / qcomp=0.60 / qpmin=0 / qpmax=69 / qpstep=4 / cplxblur=20.0 / qblur=0.5 / ip_ratio=1.40 / aq=1:1.00
Language                                 : en
Language                                 : English
Language                                 : English
Language                                 : en
Language                                 : eng
Language                                 : en
Default                                  : Yes
Default                                  : Yes
Forced                                   : No
Forced                                   : No

Audio
Count                                    : 183
Count of stream of this kind             : 1
Kind of stream                           : Audio
Kind of stream                           : Audio
Stream identifier                        : 0
ID                                       : 2
ID                                       : 2
Unique ID                                : 3581986603900884357
Format                                   : AC-3
Format/Info                              : Audio Coding 3
Commercial name                          : AC-3
Mode extension                           : CM (complete main)
Codec ID                                 : A_AC3
Codec                                    : AC3
Codec                                    : AC3
Codec/Family                             : AC3
Codec/Info                               : Dolby AC3
Duration                                 : 2525280
Duration                                 : 42mn 5s
Duration                                 : 42mn 5s 280ms
Duration                                 : 42mn 5s
Duration                                 : 00:42:05.280
Bit rate mode                            : CBR
Bit rate mode                            : Constant
Bit rate                                 : 640000
Bit rate                                 : 640 Kbps
Channel(s)                               : 6
Channel(s)                               : 6 channels
Channel positions                        : Front: L C R, Side: L R, LFE
Channel positions                        : 3/2/0.1
Sampling rate                            : 48000
Sampling rate                            : 48.0 KHz
Samples count                            : 121213440
Resolution                               : 16
Resolution                               : 16 bits
Bit depth                                : 16
Bit depth                                : 16 bits
Compression mode                         : Lossy
Compression mode                         : Lossy
Delay                                    : 0
Delay                                    : 00:00:00.000
Delay, origin                            : Container
Delay, origin                            : Container
Delay relative to video                  : 0
Video0 delay                             : 0
Stream size                              : 202022400
Stream size                              : 193 MiB (6%)
Stream size                              : 193 MiB
Stream size                              : 193 MiB
Stream size                              : 193 MiB
Stream size                              : 192.7 MiB
Stream size                              : 193 MiB (6%)
Proportion of this stream                : 0.05741
Language                                 : en
Language                                 : English
Language                                 : English
Language                                 : en
Language                                 : eng
Language                                 : en
Default                                  : Yes
Default                                  : Yes
Forced                                   : No
Forced                                   : No
dialnorm                                 : -31
dialnorm/String                          : -31 dB
bsid                                     : 8
dialnorm_Average                         : -31
dialnorm_Average/String                  : -31 dB
dialnorm_Minimum                         : -31
dialnorm_Minimum/String                  : -31 dB
dialnorm_Maximum                         : -31
dialnorm_Maximum/String                  : -31 dB
dialnorm_Count                           : 2

Menu
Count                                    : 80
Count of stream of this kind             : 1
Kind of stream                           : Menu
Kind of stream                           : Menu
Stream identifier                        : 0
Chapters_Pos_Begin                       : 72
Chapters_Pos_End                         : 80
00:00:00.000                             : en:00:00:00.000
00:02:59.721                             : en:00:02:59.721
00:05:38.088                             : en:00:05:38.088
00:15:48.865                             : en:00:15:48.865
00:23:54.391                             : en:00:23:54.391
00:30:15.981                             : en:00:30:15.981
00:38:06.159                             : en:00:38:06.159
00:41:28.486                             : en:00:41:28.486


Και ένα βίντεο, από τα οποία δεν ξεκινάει καν, όταν ξεκινάει εμφανίζει το παρακάτω σφάλμα :
Εικόνα

Κώδικας: Επιλογή όλων
mediainfo --fullscan den_pezi_kan.1080p.bluray.x264.mkv
General
Count                                    : 278
Count of stream of this kind             : 1
Kind of stream                           : General
Kind of stream                           : General
Stream identifier                        : 0
Complete name                            : den_pezi_kan.1080p.bluray.x264.mkv
File name                                : den_pezi_kan.1080p.bluray.x264
File extension                           : mkv
File size                                : 3517861844
File size                                : 3.28 GiB
File size                                : 3 GiB
File size                                : 3.3 GiB
File size                                : 3.28 GiB
File size                                : 3.276 GiB
Stream size                              : 3517861844
Stream size                              : 3.28 GiB (100%)
Stream size                              : 3 GiB
Stream size                              : 3.3 GiB
Stream size                              : 3.28 GiB
Stream size                              : 3.276 GiB
Stream size                              : 3.28 GiB (100%)
Proportion of this stream                : 1.00000
File last modification date              : UTC 2016-11-15 16:28:00
File last modification date (local)      : 2016-11-15 18:28:00

Αυτό καταρχήν μόνο και μόνο που μου δίνει τόσες λίγες πληροφορίες, κάτι μου βρομάει.
Απόπειρα, μέσω του εργαλείου exiftool :
Κώδικας: Επιλογή όλων
exiftool den_pezi_kan.1080p.bluray.x264.mkv
ExifTool Version Number         : 8.60
File Name                       : den_pezi_kan.1080p.bluray.x264.mkv
Directory                       : .
File Size                       : 3355 MB
File Modification Date/Time     : 2016:11:15 18:28:00+02:00
File Permissions                : rw-------
Error                           : File format error

Γνωρίζεται να μου προτείνεται και κάποια άλλο αξιόπιστο εργαλείο με το οποίο να επιχειρήσω να λάβω πληροφορίες για το βίντεο αυτό; Τι στο καλό, να είναι κατεστραμμένα ή μη σωστά τα αρχεία αυτά ;

Α! Άκυρο ίσος, αλλά παίζει να φταίει και η κάρτα γραφικών;
Spoiler: show
1 Γνώσεις Linux: Πρώτα βήματα ┃ Προγραμματισμού: Πρώτα βήματα ┃ Αγγλικών: Ικανοποιητικό
2 Ubuntu 12.04 precise 3.2.0-50-generic 64bit (el_GR.UTF-8, Unity ubuntu), Ubuntu 3.2.0-49-generic
3 Intel Core2 Quad CPU Q9400 2.66GHz ‖ RAM 3954 MiB ‖ ASRock G31M-S
4 nVidia G92 [GeForce 9800 GT] [10de:0614] {nvidia}
5 eth0: Realtek RTL8101E/RTL8102E PCI Express Fast Ethernet controller [10ec:8136] (rev 02)
Tassos10
dudeTUX
dudeTUX
 
Δημοσιεύσεις: 435
Εγγραφή: 29 Μαρ 2010, 10:43
Εκτύπωση

Re: Totem & VLC, γιατί δε παίζουν τα βίντεο καλής ανάλυσης ;

Δημοσίευσηαπό jsalatas » 17 Νοέμ 2016, 03:49

Τρεξε το VLC από την κονσόλα. Με αυτόν τον τρόπο όταν θα πάρεις το error θα έχει κάποιο πιο αναλυτικό logmessage σε σχεση με το "Προέκυψε ενα σφάλμα"
jsalatas
punkTUX
punkTUX
 
Δημοσιεύσεις: 174
Εγγραφή: 17 Ιουν 2016, 03:38
Τοποθεσία: USA
Εκτύπωση

Re: Totem & VLC, γιατί δε παίζουν τα βίντεο καλής ανάλυσης ;

Δημοσίευσηαπό Tassos10 » 17 Νοέμ 2016, 12:32

jsalatas έγραψε:Τρεξε το VLC από την κονσόλα. Με αυτόν τον τρόπο όταν θα πάρεις το error θα έχει κάποιο πιο αναλυτικό logmessage σε σχεση με το "Προέκυψε ενα σφάλμα"

Όντως, καλή σκέψη!

Εκτέλεση του αρχείου βίντεο το οποίο ναι μεν αρχίζει αλλά αν το προχωρήσω μπορεί και να κολλήσει :
Κώδικας: Επιλογή όλων
vlc video_1.1080p.bluray.x264.mkv

VLC media player 2.0.10 Twoflower (revision 2.0.8+git20140326+r49189+4+5~ubuntu12.04.1)
[0x1d10108] main libvlc: Εκτέλεση του VLC με την προεπιλεγμένη διεπαφή. Χρησιμοποιήστε το 'cvlc' για να εκτελέσετε το VLC χωρίς διεπαφή.
[0x7fc780c01c48] mkv demux error: cannot load some cues/chapters/tags etc. (broken seekhead or file)
[0x7fc780c01c48] mkv demux error: cannot load some cues/chapters/tags etc. (broken seekhead or file)


Και το αρχείο βίντεο που δε παίζει καν :
Κώδικας: Επιλογή όλων
vlc video_2.1080p.bluray.x264.mkv

VLC media player 2.0.10 Twoflower (revision 2.0.8+git20140326+r49189+4+5~ubuntu12.04.1)
[0x1177108] main libvlc: Εκτέλεση του VLC με την προεπιλεγμένη διεπαφή. Χρησιμοποιήστε το 'cvlc' για να εκτελέσετε το VLC χωρίς διεπαφή.
[0x7f979c000b78] main input error: demux doesn't like DEMUX_GET_TIME
[0x7f979c000b78] main input error: demux doesn't like DEMUX_GET_TIME
[0x7f979c000b78] main input error: demux doesn't like DEMUX_GET_TIME
[0x7f979c000b78] main input error: demux doesn't like DEMUX_GET_TIME
..
..
έδειχνε αυτό το μήνυμα συνεχώς ( σαν να έπεσε σε ατέρμον βρόγχο )
..
[0x7f979c000b78] main input error: demux doesn't like DEMUX_GET_TIME



Και από τον totem ( πάλι για το δεύτερο βίντεο ) :

Κώδικας: Επιλογή όλων
totem video_2.1080p.bluray.x264.mkv

(totem:16114): GLib-GObject-CRITICAL **: Read/writable property 'object' on class 'ZeitgeistDpPlugin' has type 'TotemObject' which is not exactly equal to the type 'GObject' of the property on the interface 'PeasActivatable'

** Message: Error: Αδυναμία καθορισμού του τύπου της ροής.
gsttypefindelement.c(996): gst_type_find_element_activate (): /GstPlayBin2:play/GstURIDecodeBin:uridecodebin0/GstDecodeBin2:decodebin20/GstTypeFindElement:typefind
Spoiler: show
1 Γνώσεις Linux: Πρώτα βήματα ┃ Προγραμματισμού: Πρώτα βήματα ┃ Αγγλικών: Ικανοποιητικό
2 Ubuntu 12.04 precise 3.2.0-50-generic 64bit (el_GR.UTF-8, Unity ubuntu), Ubuntu 3.2.0-49-generic
3 Intel Core2 Quad CPU Q9400 2.66GHz ‖ RAM 3954 MiB ‖ ASRock G31M-S
4 nVidia G92 [GeForce 9800 GT] [10de:0614] {nvidia}
5 eth0: Realtek RTL8101E/RTL8102E PCI Express Fast Ethernet controller [10ec:8136] (rev 02)
Tassos10
dudeTUX
dudeTUX
 
Δημοσιεύσεις: 435
Εγγραφή: 29 Μαρ 2010, 10:43
Εκτύπωση

Re: Totem & VLC, γιατί δε παίζουν τα βίντεο καλής ανάλυσης ;

Δημοσίευσηαπό jsalatas » 17 Νοέμ 2016, 22:18

χμμμ...... το ποιο πιθανό είναι να είναι corrupted τα αρχεία :\

Δοκίμασε όμως να κάνεις reset τα settings του vlc: βρες το directory ~/.config/vlc καντο move κάπου άλλου και μετα ξανατρεξε το vlc μπας και :\
jsalatas
punkTUX
punkTUX
 
Δημοσιεύσεις: 174
Εγγραφή: 17 Ιουν 2016, 03:38
Τοποθεσία: USA
Εκτύπωση

Re: Totem & VLC, γιατί δε παίζουν τα βίντεο καλής ανάλυσης ;

Δημοσίευσηαπό Tassos10 » 18 Νοέμ 2016, 00:07

jsalatas έγραψε:χμμμ...... το ποιο πιθανό είναι να είναι corrupted τα αρχεία :\

Δοκίμασε όμως να κάνεις reset τα settings του vlc: βρες το directory ~/.config/vlc καντο move κάπου άλλου και μετα ξανατρεξε το vlc μπας και :\

Έχω δοκιμάσει να τα αναπαράγω και από δύο διαφορετικούς υπολογιστές.
Αλλά επειδή και η πηγή που τα πήρα επίσης δε πιστεύω να τα έχει με πρόβλημα δε μπορώ ακόμη να το πιστέψω. Αν και ειδικά τα βίντεο όπου παίρνω ελάχιστες πληροφορίες, σε αυτό το συμπέρασμα με οδηγούν και εμένα.

Πάντως θέλω αν γίνεται να βρούμε ένα τρόπο να το διαπιστώσουμε επακριβώς.
Spoiler: show
1 Γνώσεις Linux: Πρώτα βήματα ┃ Προγραμματισμού: Πρώτα βήματα ┃ Αγγλικών: Ικανοποιητικό
2 Ubuntu 12.04 precise 3.2.0-50-generic 64bit (el_GR.UTF-8, Unity ubuntu), Ubuntu 3.2.0-49-generic
3 Intel Core2 Quad CPU Q9400 2.66GHz ‖ RAM 3954 MiB ‖ ASRock G31M-S
4 nVidia G92 [GeForce 9800 GT] [10de:0614] {nvidia}
5 eth0: Realtek RTL8101E/RTL8102E PCI Express Fast Ethernet controller [10ec:8136] (rev 02)
Tassos10
dudeTUX
dudeTUX
 
Δημοσιεύσεις: 435
Εγγραφή: 29 Μαρ 2010, 10:43
Εκτύπωση

Re: Totem & VLC, γιατί δε παίζουν τα βίντεο καλής ανάλυσης ;

Δημοσίευσηαπό jsalatas » 18 Νοέμ 2016, 04:30

Ε ο μόνος τρόπος να το διαπιστώσεις επακριβώς είναι βρεις ενα PC/εφαρμογή που να τα παίζει.

Φαντάζομαι όμως ότι θα πέσεις στο πρόβλημα του τερματισμού. Σε απλά ελληνικά, σε πόσα PC/εφαρμογές θα πρέπει να το δοκιμάσεις μεχρι να πείσεις τον εαυτό σου ότι όντως εχει πρόβλημα το αρχείο; :)
jsalatas
punkTUX
punkTUX
 
Δημοσιεύσεις: 174
Εγγραφή: 17 Ιουν 2016, 03:38
Τοποθεσία: USA
Εκτύπωση

Re: Totem & VLC, γιατί δε παίζουν τα βίντεο καλής ανάλυσης ;  Το θέμα επιλύθηκε

Δημοσίευσηαπό Tassos10 » 20 Νοέμ 2016, 11:02

jsalatas έγραψε:Ε ο μόνος τρόπος να το διαπιστώσεις επακριβώς είναι βρεις ενα PC/εφαρμογή που να τα παίζει.

Φαντάζομαι όμως ότι θα πέσεις στο πρόβλημα του τερματισμού. Σε απλά ελληνικά, σε πόσα PC/εφαρμογές θα πρέπει να το δοκιμάσεις μεχρι να πείσεις τον εαυτό σου ότι όντως εχει πρόβλημα το αρχείο; :)


χαχαχα δεν έχεις άδικο έτσι όπως σου είπα και εγώ. Αλλά ήμουν πεπεισμένος πως τα βίντεο δεν ήταν χαλασμένα, έτσι ( αν και δε το περίμενα ) τα ξανά μετέφερα στον υπολογιστή μου και τελικά παίζουν κανονικά. Από ότι φαίνεται κάτι είχε πάει στραβά κατά την μετακίνηση. Τι να πω συγνώμη για την ταλαιπωρία και τον χρόνο φίλε, είναι χαζό αυτό που έπαθα και για αυτό δε το περίμενα καν. Τέλος πάντων τα βίντεο παίζουν και είμαι χαρούμενος για αυτό!
Σε ευχαριστώ πάρα πολύ για όλα!
Spoiler: show
1 Γνώσεις Linux: Πρώτα βήματα ┃ Προγραμματισμού: Πρώτα βήματα ┃ Αγγλικών: Ικανοποιητικό
2 Ubuntu 12.04 precise 3.2.0-50-generic 64bit (el_GR.UTF-8, Unity ubuntu), Ubuntu 3.2.0-49-generic
3 Intel Core2 Quad CPU Q9400 2.66GHz ‖ RAM 3954 MiB ‖ ASRock G31M-S
4 nVidia G92 [GeForce 9800 GT] [10de:0614] {nvidia}
5 eth0: Realtek RTL8101E/RTL8102E PCI Express Fast Ethernet controller [10ec:8136] (rev 02)
Tassos10
dudeTUX
dudeTUX
 
Δημοσιεύσεις: 435
Εγγραφή: 29 Μαρ 2010, 10:43
Εκτύπωση

Re: Totem & VLC, γιατί δε παίζουν τα βίντεο καλής ανάλυσης ;

Δημοσίευσηαπό draco » 23 Νοέμ 2016, 18:02

Κανε και έναν ελέγχο στον δίσκο σου μήπως έχει ελαττώματα ... και τυχαία τα βίντεο γράφτηκαν στα σημεία με τα ελαττώματα . το έχω συναντήσει αλλά όχι στο λινουξ αλλά σε παράθυρα .. μετά από ελενχο ανακάλυψα κακούς τομείς ... και αυτό είναι "σινιάλο" ότι κάτι τρέχει με τον δίσκο...
1 Γνώσεις Linux: Πρώτα βήματα ┃ Προγραμματισμού: Καθόλου ┃ Αγγλικών: Καθόλου
2 Ubuntu 16.04 xenial 4.4.0-46-generic 64bit (el_GR.UTF-8, XFCE xubuntu)
3 Pentium Dual-Core CPU E5200 2.50GHz ‖ RAM 5967 MiB ‖ ASUS INC. P5Q
4 Advanced Micro Devices, Inc. [AMD/ATI] Cedar [Radeon HD 5000/6000/7350/8350 Series] [1002:68f9] {radeon}
5 enp2s0: Qualcomm Atheros AR8121/AR8113/AR8114 Gigabit or Fast Ethernet [1969:1026] (rev b0)
Άβαταρ μέλους
draco
babeTUX
babeTUX
 
Δημοσιεύσεις: 112
Εγγραφή: 19 Νοέμ 2012, 15:22
Εκτύπωση

Re: Totem & VLC, γιατί δε παίζουν τα βίντεο καλής ανάλυσης ;

Δημοσίευσηαπό Tassos10 » 26 Νοέμ 2016, 12:33

draco έγραψε:Κανε και έναν ελέγχο στον δίσκο σου μήπως έχει ελαττώματα ... και τυχαία τα βίντεο γράφτηκαν στα σημεία με τα ελαττώματα . το έχω συναντήσει αλλά όχι στο λινουξ αλλά σε παράθυρα .. μετά από ελενχο ανακάλυψα κακούς τομείς ... και αυτό είναι "σινιάλο" ότι κάτι τρέχει με τον δίσκο...

Σε ευχαριστώ πάρα πολύ για την συμβουλή σου. Αν και δε νομίζω γιατί είχε να κάνει με το πως τα πήρα μέσω δικτύου, αλλά επειδή ποτέ μη λες ποτέ και δεν είναι κακός και ένας έλεγχος... Με ποιο λογισμικό έκανες τον έλεγχο ;
Spoiler: show
1 Γνώσεις Linux: Πρώτα βήματα ┃ Προγραμματισμού: Πρώτα βήματα ┃ Αγγλικών: Ικανοποιητικό
2 Ubuntu 12.04 precise 3.2.0-50-generic 64bit (el_GR.UTF-8, Unity ubuntu), Ubuntu 3.2.0-49-generic
3 Intel Core2 Quad CPU Q9400 2.66GHz ‖ RAM 3954 MiB ‖ ASRock G31M-S
4 nVidia G92 [GeForce 9800 GT] [10de:0614] {nvidia}
5 eth0: Realtek RTL8101E/RTL8102E PCI Express Fast Ethernet controller [10ec:8136] (rev 02)
Tassos10
dudeTUX
dudeTUX
 
Δημοσιεύσεις: 435
Εγγραφή: 29 Μαρ 2010, 10:43
Εκτύπωση

Re: Totem & VLC, γιατί δε παίζουν τα βίντεο καλής ανάλυσης ;

Δημοσίευσηαπό Reinach » 26 Νοέμ 2016, 13:10

Tassos10 έγραψε:Με ποιο λογισμικό έκανες τον έλεγχο ;


Από το Dash άνοιξε την εφαρμογή Δίσκοι. Από το μενού τέρμα πάνω δεξιά πατάς το Δεδομένα SMART και αυτοδιαγνωστικοί έλεγχοι. Εκεί φαίνεται η "υγεία" του δίσκου.
1 Γνώσεις Linux: Ικανοποιητικό ┃ Προγραμματισμού: Πρώτα βήματα ┃ Αγγλικών: Πολύ καλό
2 Ubuntu 16.04 xenial 4.10.0-38-generic 64bit (el_GR.UTF-8, MATE mate), Ubuntu 4.10.0-37-generic
3 Intel Core2 Duo CPU T8300 2.40GHz ‖ RAM 3948 MiB ‖ Acer Aspire 6920
4 nVidia G84M [GeForce 9500M GS] [10de:0405] {nouveau}
5 enp2s0: Qualcomm Atheros AR8121/AR8113/AR8114 Gigabit or Fast Ethernet [1969:1026] (rev b0) ⋮ wlp8s0: Intel PRO/Wireless 4965 AG or AGN [Kedron] Network Connection [8086:4229] (rev 61)
--------------------------------------------------------------------------------------------------
Άβαταρ μέλους
Reinach
seniorTUX
seniorTUX
 
Δημοσιεύσεις: 664
Εγγραφή: 09 Νοέμ 2008, 20:48
Εκτύπωση

Επόμενο

  • ΣΧΕΤΙΚΑ ΘΕΜΑΤΑ
    ΑΠΑΝΤΗΣΕΙΣ
    ΠΡΟΒΟΛΕΣ
    ΣΥΓΓΡΑΦΕΑΣ

Επιστροφή στο Εφαρμογές για Πολυμέσα